Robin Hood(2010) CZ TITULKY VLOZENE!!

Filmy plné akce
Uživatelský avatar
Gomeez
Beginner
Beginner
Příspěvky: 13
Registrován: stř 23. pro 2009 18:46:27

Robin Hood(2010) CZ TITULKY VLOZENE!!

Příspěvekod Gomeez » úte 08. čer 2010 23:26:04

Robin Hood(2010) CZ TITULKY VLOZENE!!

Obrázek

INFO :

TRAILER

Kód: Vybrat vše

http://www.csfd.cz/film/228261-robin-hood/videa/

GALERIA

Kód: Vybrat vše

http://www.csfd.cz/film/228261-robin-hood/galeri



Format : AVI

Format/Info : Audio Video Interleave
File size : 897 MiB
Duration : 2h 11mn
Overall bit rate : 953 Kbps

Video

ID : 0
Format : MPEG-4 Visual
Format profile : AdvancedSimple@L5
Format settings, BVOP : Yes
Format settings, QPel : No
Format settings, GMC : No warppoints
Format settings, Matrix : Default (H.263)
Codec ID : XVID
Codec ID/Hint : XviD
Duration : 2h 11mn
Bit rate : 816 Kbps
Width : 720 pixels
Height : 304 pixels
Display aspect ratio : 2.35:1
Frame rate : 23.976 fps
Resolution : 24 bits
Colorimetry : 4:2:0
Scan type : Progressive
Bits/(Pixel*Frame) : 0.156
Stream size : 768 MiB (86%)
Writing library : XviD 1.2.0.dev47 (UTC 2006-11-01)

Audio

ID : 1
Format : MPEG Audio
Format version : Version 1
Format profile : Layer 3
Codec ID : 55
Codec ID/Hint : MP3
Duration : 2h 11mn
Bit rate mode : Constant
Bit rate : 128 Kbps
Channel(s) : 2 channels
Sampling rate : 44.1 KHz
Resolution : 16 bits
Stream size : 120 MiB (13%)
Alignment : Aligned on interleaves
Interleave, duration : 42 ms (1.00 video frame)


Obrázek

Obrázek

Obrázek

DOWNLOAD


Kód: Vybrat vše

http://uloz.to/5021013/robin-hood-2010-cz-titulky-vlozene-kval.kino-dobra-gomeez.avi/?partner=658021
som iba uploader nerobim dvdrip aspon teda zatila nie
setky moje filmy videa su v dobrej kvalite obrazu aj zvuku
preferujem uloz.to
ak nastala chyba u mojeho uploadu poslite mi spravu ...

Zpět na

cron