The Scorpion King 3: Battle for Redemption (2012) Brrip + CZ

Pouze novinky v kinech a na DVD.
tonyr
Pěšák
Pěšák
Příspěvky: 94
Registrován: ned 27. dub 2008 14:11:32

The Scorpion King 3: Battle for Redemption (2012) Brrip + CZ

Příspěvekod tonyr » úte 27. pro 2011 17:03:41

Obrázek

The Scorpion King 3: Battle for Redemption (2012) Brrip + CZ titulky

Kód: Vybrat vše

http://www.csfd.cz/film/288535

Akční / Dobrodružný / Fantasy
Thajsko, 2012
Režie:
Roel Reiné
Hudba:
Trevor Morris
Hrají:
Victor Webster, Ron Perlman, Billy Zane, Bostin Christopher, Kevin 'Kimbo Slice' Ferguson, Dave Bautista


Format : AVI
Format/Info : Audio Video Interleave
File size : 802 MiB
Duration : 1h 45mn
Overall bit rate mode : Variable
Overall bit rate : 1 065 Kbps

Video
ID : 0
Format : MPEG-4 Visual
Format profile : Advanced Simple@L5
Format settings, BVOP : 2
Format settings, QPel : No
Format settings, GMC : No warppoints
Format settings, Matrix : Default (H.263)
Codec ID : XVID
Codec ID/Hint : XviD
Duration : 1h 45mn
Bit rate : 919 Kbps
Width : 624 pixels
Height : 352 pixels
Display aspect ratio : 16:9
Frame rate : 23.976 fps
Color space : YUV
Chroma subsampling : 4:2:0
Bit depth : 8 bits
Scan type : Progressive
Compression mode : Lossy
Bits/(Pixel*Frame) : 0.174
Stream size : 691 MiB (86%)
Writing library : XviD 1.2.1 (UTC 2008-12-04)

Audio
ID : 1
Format : MPEG Audio
Format version : Version 1
Format profile : Layer 3
Mode : Joint stereo
Mode extension : MS Stereo
Codec ID : 55
Codec ID/Hint : MP3
Duration : 1h 45mn
Bit rate mode : Variable
Bit rate : 134 Kbps
Nominal bit rate : 144 Kbps
Channel(s) : 2 channels
Sampling rate : 48.0 KHz
Compression mode : Lossy
Stream size : 101 MiB (13%)
Alignment : Aligned on interleaves
Interleave, duration : 24 ms (0.58 video frame)
Interleave, preload duration : 63 ms
Title : English - 3LT0N
Writing library : LAME3.98r
Encoding settings : -m j -V 4 -q 2 -lowpass 17.5 --abr 144

Download:

Kód: Vybrat vše

http://download.hellshare.cz/the-scorpion-king-3-battle-for-redemption-2012-brrip-avi/4519686/

Titulky cz

Kód: Vybrat vše

http://www.multiload.cz/stahnout/550148/the-scorpion-king-3-battle-for-redemption-2012-brrip-srt/

Zpět na

cron