Odmena za opravu auta

Porno filmy
eva14
Beginner
Beginner
Příspěvky: 15
Registrován: ned 09. říj 2011 16:58:56

Odmena za opravu auta

Příspěvekod eva14 » úte 15. lis 2011 22:05:37

Odmena za opravu auta

Obrázek

Bitrate/kodek:
Hlavní #0
Formát: Windows Media
Velikost souboru: 332 MiB
Hrací čas: 14mn 30s
Bit rate: 3200 Kbps
VBR Peak: 5000000
Buffer Averaga: 61013


Kvalita videa: 1024 x 576
Format profile: MP@HL
Codec ID: WMV3
Codec ID/Info: Windows Media Video 9
Codec ID/Hint: WMV3
Description of the codec: Windows Media Video 9 - Professional
Duration: 14mn 30s
Bit rate mode: Variable
Bit rate: 3 000 Kbps
Width: 1 024 pixels
Height: 576 pixels
Display aspect ratio: 16:9
Frame rate: 25.000 fps
Bit depth: 8 bits
Scan type: Progressive
Compression mode: Lossy
Bits/(Pixel*Frame): 0.203
Stream size: 311 MiB (94%)

Kvalita zvuku:
2 channels, 96.0 KHz
Format: WMA
Format profile: Pro
Codec ID: 162
Codec ID/Info: Windows Media Audio
Description of the codec: Windows Media Audio 10 Professional - 192 kbps, 96 kHz, 2 channel

24 bit 2-pass VBR
Duration: 14mn 30s
Bit rate mode: Variable
Bit rate: 187 Kbps
Channel(s): 2 channels
Sampling rate: 96.0 KHz
Bit depth: 24 bits
Stream size: 19.4 MiB (6%)


Kód: Vybrat vše

http://www.fileserve.com/file/UDSAEbX/Odmena za opravu auta.wmv


Kód: Vybrat vše

http://www.filesonic.com/file/2820269805/Odmena za opravu auta.wmv


Kód: Vybrat vše

http://bitshare.com/files/5iwvz796/Odmena-za-opravu-auta.wmv.html


Kód: Vybrat vše

http://hotfile.com/dl/133699264/95c3433/Odmena_za_opravu_auta.wmv.html

Zpět na

cron