Zpet ve Skole

Porno filmy
eva14
Beginner
Beginner
Příspěvky: 15
Registrován: ned 09. říj 2011 16:58:56

Zpet ve Skole

Příspěvekod eva14 » úte 15. lis 2011 22:07:16

Zpet ve Skole

Kód: Vybrat vše

[url=http://img3.imagehyper.com/img.php?id=10664416&c=db6b1b4aaa835796ef7b772848fd08f6][img]http://img3.imagehyper.com/t/0/10/10664/10664416-ed9fd1ae.jpg[/img][/url]




Rok vydani: 2011
Delka: 16
Bitrate/kodek:
General #0
Celý název a cesta: Sexraj 93 - Zpet ve Skole.mp4
Formát: MPEG-4
Formát/Info: ISO 14496-1 version 2
Formát/Family: MPEG-4
Velikost souboru: 373 MiB
Hrací čas: 16mn 25s
Bit rate: 3177 Kbps
StreamSize: 521 KiB
Encoded date: UTC 2011-01-17 19:36:11
Tagged date: UTC 2011-01-17 19:36:11
Video
ID: 1
Format: AVC
Format/Info: Advanced Video Codec
Format profile: Main@L4.2
Format settings, CABAC: Yes
Format settings, ReFrames: 3 frames
Codec ID: avc1
Codec ID/Info: Advanced Video Coding
Duration: 16mn 25s
Bit rate mode: Constant
Bit rate: 3 000 Kbps
Width: 1 280 pixels
Height: 720 pixels
Display aspect ratio: 16:9
Frame rate mode: Constant
Frame rate: 25.000 fps
Standard: PAL
Color space: YUV
Chroma subsampling: 4:2:0
Bit depth: 8 bits
Scan type: Progressive
Bits/(Pixel*Frame): 0.130
Stream size: 351 MiB (94%)
Language: Czech
Encoded date: UTC 2011-01-17 19:36:11
Tagged date: UTC 2011-01-17 19:36:11

Audio
ID: 2
Format: AAC
Format/Info: Advanced Audio Codec
Format profile: LC
Codec ID: 40
Duration: 16mn 25s
Bit rate mode: Variable
Bit rate: 192 Kbps
Maximum bit rate: 293 Kbps
Channel(s): 2 channels
Channel positions: Front: L R
Sampling rate: 48.0 KHz
Compression mode: Lossy
Stream size: 22.2 MiB (6%)
Language: Czech
Encoded date: UTC 2011-01-17 19:36:11
Tagged date: UTC 2011-01-17 19:36:11
Material_Duration: 985493
Material_StreamSize: 23328475


Tomáš si chce v erotice vydělat na pohřeb babičky a Pepa zase zkusit nějakou holku. Prej má

rád velký kozy, tak nevím s čím před tím souložil a asi ani nechci vědět. Oba ale mají rádi

starší ženský, tak jsme jim to umožnili. Dorazili k nám manželé kolem pětačtyřiceti let. Ona

učitelka, on podnikatel. Předvedla nám nefalšovanou pedagogickou hodinku a naši žáci se

museli učit. Její vážný, až dominantní pohled i mně vzrušoval, ale nechtěl jsem dostat

poznámku do žákovský knížky, tak jsem se musel brzdit


Kód: Vybrat vše

http://www.filesonic.com/file/2820269145/Zpet ve Skole.mp4



Kód: Vybrat vše

http://www.fileserve.com/file/ugeMhkT/Zpet ve Skole.mp4



Kód: Vybrat vše

http://hotfile.com/dl/133698624/7dbd0d3/Zpet_ve_Skole.mp4.html



Kód: Vybrat vše

http://bitshare.com/files/qg751gg5/Zpet-ve-Skole.mp4.html

Zpět na

cron