Gabriella

Porno filmy
eva14
Beginner
Beginner
Příspěvky: 15
Registrován: ned 09. říj 2011 16:58:56

Gabriella

Příspěvekod eva14 » úte 15. lis 2011 22:07:59

Gabriella


Kód: Vybrat vše

[url=http://img4.imagehyper.com/img.php?id=10646836&c=131c1c10e731e8c44bd4a31d6950156e][img]http://img4.imagehyper.com/t/0/10/10646/10646836-5b1e667e.jpg[/img][/url]



Formát: AVI
Formát/Info: Audio Video Interleave
Formát/Family: RIFF
Velikost souboru: 319 MiB
Hrací čas: 20mn 9s
Bit rate: 2201 Kbps
Použitý software: MEncoder SVN-r30881(20100311-gcc4.3.3)
Enkódoval: MPlayer

Kvalita Videa #0
ID : 0
Format : MPEG-4 Visual
Format profile : AdvancedSimple@L5
Format settings, BVOP : Yes
Format settings, QPel : No
Format settings, GMC : No warppoints
Format settings, Matrix : Default (H.263)
Codec ID : XVID
Codec ID/Hint : XviD
Duration : 20mn 9s
Bit rate : 2 069 Kbps
Width : 720 pixels
Height : 576 pixels
Display aspect ratio : 4:3
Frame rate : 25.000 fps
Standard : PAL
Resolution : 24 bits
Colorimetry : 4:2:0
Scan type : Progressive
Bits/(Pixel*Frame) : 0.200
Stream size : 298 MiB (94%)
Writing library : XviD 1.2.1 (2011-08-03)

Kvalita Zvuku #0
ID : 1
Format : MPEG Audio
Format version : Version 1
Format profile : Layer 3
Codec ID : 55
Codec ID/Hint : MP3
Duration : 20mn 9s
Bit rate mode : Constant
Bit rate : 128 Kbps
Channel(s) : 2 channels
Sampling rate : 44.1 KHz
Resolution : 16 bits
Video delay : 40ms
Stream size : 18.5 MiB (6%)
Language/String: Czech (CZ)
Alignment : Aligned on interleaves
Interleave, duration : 26 ms (0.65 video frame)
Interleave, preload duration : 522 ms


Kód: Vybrat vše

http://www.fileserve.com/file/FjSHHUd/Leo TV - Filmova streda (Gabriella) (2011-08-03).avi



Kód: Vybrat vše

http://hotfile.com/dl/134165190/53bacdc/Leo_TV_-_Filmova_streda_(Gabriella)_(2011-08-03).avi.html



Kód: Vybrat vše

http://bitshare.com/files/jay371ca/Leo-TV---Filmova-streda--Gabriella---2011-08-03-.avi.html

Zpět na

cron