Bolek a Lolek a jejich příběhy

Pohádky a jiné
eva14
Beginner
Beginner
Příspěvky: 15
Registrován: ned 09. říj 2011 16:58:56

Bolek a Lolek a jejich příběhy

Příspěvekod eva14 » úte 15. lis 2011 22:02:42

Bolek a Lolek a jejich příběhy


Obrázek

Animovaný / Krátkometrážní / Rodinný
Část 1:
1. Lukostřelci
2. Yeti
3. Hra na kovboje
4. Skřížené šavle
5. Krotitel zvířat
6. Korida


Format : AVI
Format/Info : Audio Video Interleave
File size : 502 MiB
Duration : 1h 3mn
Overall bit rate : 1 106 Kbps
Writing application : MEncoder version Beta 4.4.5 building on 20110111
Video
ID : 0
Format : MPEG-4 Visual
Format profile : Simple@L1
Format settings, BVOP : No
Format settings, QPel : No
Format settings, GMC : No warppoints
Format settings, Matrix : Default (H.263)
Codec ID : DX50
Codec ID/Hint : DivX 5
Duration : 1h 3mn
Bit rate : 1 000 Kbps
Width : 720 pixels
Height : 540 pixels
Display aspect ratio : 4:3
Frame rate : 25.000 fps
Color space : YUV
Chroma subsampling : 4:2:0
Bit depth : 8 bits
Scan type : Progressive
Compression mode : Lossy
Bits/(Pixel*Frame) : 0.103
Stream size : 454 MiB (90%)
Writing library : DigiArty AV Encoder Core

Audio
ID : 1
Format : MPEG Audio
Format version : Version 1
Format profile : Layer 3
Codec ID : 55
Codec ID/Hint : MP3
Duration : 1h 3mn
Bit rate mode : Constant
Bit rate : 96.0 Kbps
Channel(s) : 2 channels
Sampling rate : 32.0 KHz
Compression mode : Lossy
Stream size : 43.6 MiB (9%)
Alignment : Aligned on interleaves
Interleave, duration : 36 ms (0.90 video frame)
Interleave, preload duration : 504 ms


Část 2:
1. Indiánská trofej
2. Kosmonauti
3. Král pouště
4. Robinson
5. Hledači pokladů
6. Sportovci
7. Dva rytíři


Format : AVI
Format/Info : Audio Video Interleave
File size : 1.09 GiB
Duration : 1h 4mn
Overall bit rate : 2 409 Kbps
Movie name : BOLEK_LOLEK_104.Title2.DVDRip
Writing application : Lavf52.33.0
Original source form/Name : BOLEK_LOLEK_104

Video
ID : 0
Format : MPEG-4 Visual
Format profile : Simple@L3
Format settings, BVOP : No
Format settings, QPel : No
Format settings, GMC : No warppoints
Format settings, Matrix : Default (H.263)
Codec ID : DX50
Codec ID/Hint : DivX 5
Duration : 1h 4mn
Bit rate : 2 014 Kbps
Width : 720 pixels
Height : 560 pixels
Display aspect ratio : 1.286
Frame rate : 25.000 fps
Color space : YUV
Chroma subsampling : 4:2:0
Bit depth : 8 bits
Scan type : Progressive
Compression mode : Lossy
Bits/(Pixel*Frame) : 0.200
Stream size : 936 MiB (84%)
Writing library : XviD 1.2.1 (UTC 2008-12-04)

Audio
ID : 1
Format : AC-3
Format/Info : Audio Coding 3
Mode extension : CM (complete main)
Codec ID : 2000
Duration : 1h 4mn
Bit rate mode : Constant
Bit rate : 384 Kbps
Channel(s) : 2 channels
Channel positions : Front: L R
Sampling rate : 48.0 KHz
Bit depth : 16 bits
Compression mode : Lossy
Stream size : 178 MiB (16%)
Alignment : Aligned on interleaves
Interleave, duration : 32 ms (0.80 video frame)


Kód: Vybrat vše

http://hotfile.com/dl/134422045/aaaf390/Bolek_a_Lolek_a_jejich_p.html
http://www.fileserve.com/file/kj6RMyB/Bolek a Lolek a jejich přibehy 1 cast. 1963.DVDRip.cz.part1.rar
http://www.fileserve.com/file/JSsqfV2/Bolek a Lolek a jejich přibehy 1 cast. 1963.DVDRip.cz.part2.rar
http://www.fileserve.com/file/n5KXQyW/Bolek a Lolek a jejich pribehy 2 cast. 1963.DVDRip.cz.part1.rar
http://www.fileserve.com/file/95kVHGQ/Bolek a Lolek a jejich pribehy 2 cast. 1963.DVDRip.cz.part2.rar
http://www.fileserve.com/file/sqpShrf/Bolek a Lolek a jejich pribehy 2 cast. 1963.DVDRip.cz.part3.rar




Kód: Vybrat vše

http://hotfile.com/dl/134422565/27dce37/Bolek_a_Lolek_a_jejich_p.html
http://hotfile.com/dl/134420775/122bd64/Bolek_a_Lolek_a_jejich_pribehy_2_cast._1963.DVDRip.cz.part1.rar.html
http://hotfile.com/dl/134422272/b2c0690/Bolek_a_Lolek_a_jejich_pribehy_2_cast._1963.DVDRip.cz.part2.rar.html
http://hotfile.com/dl/134422980/b53e7b8/Bolek_a_Lolek_a_jejich_pribehy_2_cast._1963.DVDRip.cz.part3.rar.html




Kód: Vybrat vše

/Bolek a Lolek a jejich přibehy 1 cast. 1963.DVDRip.cz.part1.rar
http://www.filesonic.com/file/3165195584/Bolek a Lolek a jejich přibehy 1 cast. 1963.DVDRip.cz.part1.rar
http://www.filesonic.com/file/3164025054/Bolek a Lolek a jejich přibehy 1 cast. 1963.DVDRip.cz.part2.rar
http://www.filesonic.com/file/3167389984/Bolek a Lolek a jejich pribehy 2 cast. 1963.DVDRip.cz.part1.rar
http://www.filesonic.com/file/3167133474/Bolek a Lolek a jejich pribehy 2 cast. 1963.DVDRip.cz.part2.rar
http://www.filesonic.com/file/3165663764/Bolek a Lolek a jejich pribehy 2 cast. 1963.DVDRip.cz.part3.rar

Zpět na

cron